18+ japanese Married Made (2017) HDRip WEB-DL Japanese Audio 400 MB

Snehamoy Chatterjee lives a poor lifestyle on Bali Island in the West Bengal Sunderbans, along with his maternal aunt who wants him to get married to Sandhya. But Snehamoy, who teaches for a living, has entered into a long-term relationship with Japan-based Miyage, and both have made a marriage-commitment without .

Movie Info :

Initial release: 09 April 2017
Format : Matroska
File size : 424 MB
Duration : 1 h 02 min
IMDB : 7.6/10

Video :

ID : 1
Format : AVC
Format/Info : Advanced Video Codec
Format profile : [email protected]
Format settings, CABAC : Yes
Format settings, RefFrames : 5 frames
Codec ID : V_MPEG4/ISO/AVC
Duration : 1 h 1 min
Bit rate : 896 kb/s
Width : 960 pixels
Height : 540 pixels
Display aspect ratio : 16:9
Frame rate mode : Constant
Frame rate : 29.970 (30000/1001) FPS
Color space : YUV
Chroma subsampling : 4:2:0
Bit depth : 8 bits
Scan type : Progressive
Bits/(Pixel*Frame) : 0.058
Stream size : 395 MiB (93%)
Title : HdFree4U.Com

Audio :

ID : 2
Format : AAC
Format/Info : Advanced Audio Codec
Format profile : LC
Codec ID : A_AAC
Duration : 1 h 1 min
Bit rate : 64.0 kb/s
Channel(s) : 2 channels
Channel positions : Front: L R
Sampling rate : 44.1 kHz
Frame rate : 43.066 FPS (1024 SPF)
Compression mode : Lossy
Stream size : 28.2 MiB (7%)
Title : HdFree4U.Com
Language : Japanese
Default : Yes
Forced : No

Text :

ID : 3
Format : UTF-8
Codec ID : S_TEXT/UTF8
Codec ID/Info : UTF-8 Plain Text
Duration : 1 min 20 s
Bit rate : 6 b/s
Count of elements : 3
Stream size : 66.0 Bytes (0%)
Title : HdFree4U.Com
Language : English
Default : Yes
Forced : No

vlcsnap-2017-12-12-22h54m15s253bd3ed5b989f4398c.jpg

 

-Download Links-

Click Here

File Size :- 424 MB

COMMENTS

WORDPRESS: 0
DISQUS: