Mental Police (2016) 480p 400 MB UNCUT HDRip x264 [Dual Audio] [Hindi DD 2.0 – Telugu 2.0]

Mental Police is a 2017 India Telugu action film, written and directed by Karanam P. Babji and jointly produced by VVNSV Prasad Dasari & VV Durga Prasad Anagani while Sai Karthik scored music for this film.

Movie Info :

Release date: 9 September 2016
Format : Matroska
File size : 437 MB
Duration : 2h 15min

Video :

ID : 1
Format : AVC
Format/Info : Advanced Video Codec
Format profile : [email protected]
Format settings, CABAC : Yes
Format settings, RefFrames : 3 frames
Codec ID : V_MPEG4/ISO/AVC
Duration : 2 h 15 min
Bit rate : 1 200 kb/s
Width : 1 280 pixels
Height : 544 pixels
Display aspect ratio : 2.35:1
Frame rate mode : Constant
Frame rate : 25.000 FPS
Color space : YUV
Chroma subsampling : 4:2:0
Bit depth : 8 bits
Scan type : Progressive
Bits/(Pixel*Frame) : 0.069
Stream size : 1.13 GiB (81%)
Title : HdFree4U.Com

Audio 1:

ID : 2
Format : MPEG Audio
Format version : Version 1
Format profile : Layer 3
Mode : Joint stereo
Mode extension : MS Stereo
Codec ID : A_MPEG/L3
Codec ID/Hint : MP3
Duration : 2 h 15 min
Bit rate mode : Constant
Bit rate : 192 kb/s
Channel(s) : 2 channels
Sampling rate : 48.0 kHz
Frame rate : 41.667 FPS (1152 SPF)
Compression mode : Lossy
Stream size : 186 MiB (13%)
Title : HdFree4U.Com
Writing library : LAME3.98.2
Language : Hindi
Default : Yes
Forced : No

Audio 2:

ID : 3
Format : AAC
Format/Info : Advanced Audio Codec
Format profile : LC
Codec ID : A_AAC
Duration : 2 h 15 min
Bit rate : 96.0 kb/s
Channel(s) : 2 channels
Channel positions : Front: L R
Sampling rate : 48.0 kHz
Frame rate : 46.875 FPS (1024 SPF)
Compression mode : Lossy
Stream size : 92.9 MiB (6%)
Title : HdFree4U.Com
Language : Telugu
Default : No
Forced : No

Text :

ID : 4
Format : UTF-8
Codec ID : S_TEXT/UTF8
Codec ID/Info : UTF-8 Plain Text
Duration : 1 h 1 min
Bit rate : 0 b/s
Count of elements : 2
Stream size : 54.0 Bytes (0%)
Title : HdFree4U.Com
Language : English
Default : Yes
Forced : No

MentalPolice2016720pac5f6.jpg

-Download Link-

Click Here

File size : 437 MB

 

COMMENTS

WORDPRESS: 0
DISQUS: